#TITLE:7 Years & 50 Days;
#SUBTITLE:;
#ARTIST:Groove Coverage;
#TITLETRANSLIT:7 Years & 50 Days;
#SUBTITLETRANSLIT:;
#ARTISTTRANSLIT:Groove Coverage;
#CREDIT:;
#BANNER:7 Years & 50 Days-bn.png;
#BACKGROUND:7 Years & 50 Days-bg.png;
#LYRICSPATH:;
#CDTITLE:pm4cd.png;
#MUSIC:7 Years & 50 Days.mp3;
#OFFSET:0.020;
#SAMPLESTART:35.400;
#SAMPLELENGTH:20.000;
#SELECTABLE:YES;
#BPMS:0.000=140.020,219.500=405.178,220.000=140.020,220.500=140.020,220.750=140.020;
#STOPS:;
#BGCHANGES:;
// cache tags:
#FIRSTBEAT:2.500;
#LASTBEAT:544.000;
#SONGFILENAME:Songs/Music V.I.P ^_^/7 Years & 50 Days/7 Years & 50 Days.sm;
#HASMUSIC:1;
#HASBANNER:1;
#MUSICLENGTH:233.141;
// end cache tags

//---------------dance-single - ----------------
#NOTES:
     dance-single:
     :
     Hard:
     14:
     1.000,1.000,1.000,0.090,0.826,1316.000,391.000,21.000,0.000,98.000:
0000
0000
0000
0000
0000
2000
0000
0010
,
3100
0010
0001
0010
0100
1000
0100
0010
,
0001
0010
0100
1000
0100
0010
0001
0010
,
0100
1000
0100
0010
0001
0010
0100
1000
,
0100
0010
0001
0010
0100
1000
0100
1010
,
0001
0010
0100
1001
0010
0100
0010
1100
,
0010
0100
1000
0101
0010
0001
0010
1001
,
0010
0100
1000
0011
0100
1000
0100
1001
,
0010
0100
1000
0110
0001
0010
0001
1010
,
0100
0010
0100
1001
0010
0100
1000
0011
,
0100
0010
1000
0101
0010
1000
0100
0011
,
0100
0001
0010
1100
0010
1000
0100
1010
,
0100
0001
0010
0101
0010
0100
0001
1100
,
0010
0001
0010
1100
0010
1000
0010
0101
,
0010
0100
0010
1001
0010
0100
0001
1100
,
0010
0100
1000
0011
0100
0010
0001
1010
,
0100
0010
1000
0101
0010
0001
0010
1001
,
0010
0100
1000
0011
0100
0010
1000
0011
,
0100
0010
0100
1001
0010
1000
0010
0101
,
1000
0010
1000
0011
0100
0001
0100
1001
,
0010
1000
0100
0011
0100
0010
1000
0111
,
1000
0100
0011
0000
1000
0100
0011
0000
1000
0100
0011
0000
0001
0010
1100
0000
,
0001
0010
1100
0000
0001
0010
1100
0000
0010
0100
1010
0000
0010
0100
1010
0000
,
0010
0100
1010
0000
0010
0100
1010
0000
0100
0010
0101
0000
0100
0010
0101
0000
,
0100
0010
0101
0000
0100
0010
0101
0000
1000
0010
0101
0000
1000
0010
0101
0000
,
1000
0010
0101
0000
1000
0010
0101
0000
1000
0010
0101
0000
0001
0100
1010
0000
,
0001
0100
1010
0000
0001
0100
1010
0000
0001
0100
1010
0000
1000
0100
1010
0000
,
1000
0100
1010
0000
1000
0100
1010
0000
1000
0100
1010
0000
0001
0010
0101
0000
,
0001
0010
0101
0000
0001
0010
0101
0000
0001
0010
0101
0000
0001
0100
1001
0000
,
0001
0100
1001
0000
0001
0100
1001
0000
0001
0100
1001
0000
0001
0100
1001
0000
,
1000
0100
1001
0000
1000
0100
1001
0000
1000
0100
1001
0000
0010
1000
0101
0000
,
0010
1000
0101
0000
0010
1000
0101
0000
0010
1000
0101
0000
0100
0010
1001
0000
,
0100
0010
1001
0000
0100
0010
1001
0000
0100
0010
1001
0000
0001
0010
0101
0000
,
0001
0010
0101
0000
0001
0010
0101
0000
0001
0010
0101
0000
0100
1000
0101
0000
,
0100
1000
0101
0000
0100
1000
0101
0000
0010
0001
1010
0000
0010
0001
1010
0000
,
0010
0001
1010
0000
0010
0001
1010
0000
0010
0001
1010
0000
0010
0001
1010
0000
,
0001
0010
1100
0000
0001
0010
1100
0000
0010
0000
0102
0000
1000
0000
0120
0000
,
1000
0100
1000
0100
1000
0133
0010
0101
,
0000
0101
0000
0000
0101
0000
0101
0000
0000
0101
0000
0000
1010
0000
2020
0000
,
0000
0000
0000
0000
0000
0000
0000
0000
0000
0000
0000
0000
0000
3030
0000
1010
,
0000
0000
1010
0000
0000
1010
0000
1010
0000
0000
1010
0000
0000
0101
0000
0202
,
0000
0000
0000
0000
0000
0000
0303
1100
,
0000
1100
0000
0000
1100
0000
1100
0000
0000
1100
0000
0000
0011
0000
0022
0000
,
0000
0000
0000
0000
0000
0000
0033
0110
,
0000
0110
0000
0000
0110
0000
0110
0000
0000
0110
0000
0000
1001
0000
1001
0000
,
0000
1001
0000
0000
1001
0000
1001
0000
1001
0000
1001
0000
1001
0000
1111
0000
,
0001
0010
0101
0000
0001
0010
0101
0000
0001
0010
0101
0000
1000
0100
0011
0000
,
1000
0100
0011
0000
1000
0100
0011
0000
0001
0010
1100
0000
0001
0010
1100
0000
,
0001
0010
1100
0000
0001
0100
1010
0000
0001
0100
1010
0000
0001
0100
1010
0000
,
1000
0010
0101
0000
1000
0010
0101
0000
1000
0010
0101
0000
0010
0000
2101
0000
,
0100
0011
0100
0011
0100
0011
0100
0111
,
0100
0011
0100
0011
0100
0011
0100
0111
,
0100
0000
0011
0000
0100
0000
0111
0000
0100
0000
0011
0000
0100
0000
0111
0001
,
0001
0000
0000
0001
0000
0000
0001
0000
0000
0001
0000
0000
0001
0000
0000
0001
0000
0000
0001
0000
0000
0001
0000
0000
0001
0000
0000
0001
0000
0000
0100
0000
0010
0000
0001
0000
0010
0000
0100
0000
0010
0000
0001
0000
0010
0000
3101
0000
,
0000
0000
0200
0000
0000
0000
0000
0000
0000
0000
0000
0000
0000
0000
0000
1311
,
0000
1000
0100
0011
0000
1000
0100
0011
0000
1000
0100
0011
0000
0001
0010
0101
,
0000
0001
0010
0101
0000
0001
0010
0101
0000
0010
0001
1010
0000
0010
0001
1010
,
0000
0010
0001
1010
0000
0010
0001
1010
0000
0100
1000
0011
0000
0100
1000
0011
,
0000
0100
1000
0011
0000
0100
0010
1001
0000
0100
0010
1001
0000
0001
0100
1010
,
0000
0001
0100
1010
0000
0001
0100
1010
0000
1000
0010
0101
0000
1000
0010
0101
,
0000
0010
1000
0101
0000
0010
1000
0101
0000
1000
0100
1010
0000
1000
0100
1010
,
0000
1000
0100
1010
0000
0001
0100
0011
0000
0001
0100
0011
0000
0001
0100
0011
,
0000
1000
0010
1100
0000
1000
0010
1100
0000
1000
0010
1100
0000
0001
0010
1001
,
0000
0001
0010
1001
0000
0001
0010
1001
0000
1000
0100
1001
0000
1000
0100
1001
,
0000
1000
0100
1001
0000
0001
0010
1100
0000
0001
0010
1100
0000
0001
0010
1100
,
0000
1000
0100
0011
0000
1000
0100
0011
0000
1000
0100
0011
0000
0100
1000
0011
,
0000
0100
1000
0011
0000
0100
1000
0011
0000
0010
0001
1100
0000
0010
0001
1100
,
0000
0010
0001
1100
0000
0010
1000
0110
0000
0010
1000
0110
0000
0010
1000
0110
,
0000
0010
0100
1001
0000
0010
0100
1001
0000
0010
0100
1001
0000
0010
1000
0101
,
0000
0010
1000
0101
0000
0010
1000
0101
0000
0010
1000
0011
0000
0010
1000
0011
,
0000
0010
1000
0011
0000
1000
0010
1100
0000
1000
0010
1100
0000
1000
0010
2100
,
0010
0100
0000
0001
0010
0001
0000
0010
0100
0010
0000
0001
0010
0001
0000
0010
,
0001
0010
0000
0100
0010
0100
0000
0001
0010
0001
0000
0010
0001
0010
0000
0100
,
0010
0100
0000
0010
0100
0010
0000
0001
0010
0001
0000
0100
0010
0100
0000
0001
,
0010
0001
0000
0010
0001
0010
0000
0100
0010
0100
0000
0001
0010
0001
0000
3200
,
0010
0001
0000
1000
0010
1000
0000
0001
0010
0001
0000
0010
0001
0010
0000
1000
,
0010
1000
0000
0001
0010
0001
0000
0010
1000
0010
0000
0001
0010
0001
0000
0010
,
0001
0010
0000
0320
0001
0100
0000
0001
0100
0001
0000
0100
1000
0100
0000
1000
,
0100
1000
0000
0001
0100
0001
0000
0100
1000
0100
0000
0001
0100
0001
0000
0000
,
1131
0001
1100
0010
0101
1000
0011
0100
,
1010
0001
1100
0010
0101
0010
1001
0100
,
0011
1000
0101
0010
1100
0001
1010
0100
,
1001
0010
0101
0010
1100
0010
0101
1000
,
0011
0100
1010
0100
0011
1000
0110
0001
,
0101
0001
0011
0010
0110
0100
1100
0010
,
0101
1000
0011
0100
1010
0100
0011
0100
,
1010
0001
1100
0010
0101
0010
1100
0010
,
0102
0010
0100
1000
0100
0010
0100
1000
,
0100
0010
0100
1000
0100
0010
0100
0023
,
0100
0001
0100
1000
0100
0001
0100
1000
,
0100
0001
0100
1000
0100
0001
0100
1000
,
0230
0010
0001
0010
1000
0010
0001
0010
,
1000
0010
0001
0010
1000
0010
0001
0010
,
1000
0010
0001
0010
1000
0010
0001
0010
,
1000
0010
0001
0010
1000
0010
0001
0010
,
1310
0100
1010
0100
1010
1000
0100
0010
,
0101
0000
0010
0000
0101
0000
0010
0000
0101
0000
0000
0010
0100
1000
0100
0010
,
1100
0001
1100
0001
1100
0100
0011
1000
,
0011
1000
0011
0100
0011
0100
0011
1000
,
0101
1000
0101
1000
0101
0010
0100
0001
,
1010
0000
0001
0000
1010
0000
0001
0000
1010
0000
0000
0010
0100
1000
0100
0010
,
1001
0010
1001
0010
1001
0100
1001
0100
,
1001
0100
1001
0100
1010
0100
1010
0101
,
2110
0001
0100
0001
0010
0001
0100
0001
,
0111
0001
0010
0001
0100
0001
0100
0011
,
0111
0001
0100
0001
0010
0001
0100
0001
,
0111
0001
0010
0001
0100
0001
0010
0011
,
0111
0011
0111
0011
0111
0011
0111
0110
,
0111
0110
0111
0110
0111
0110
0111
0110
,
0111
0010
0010
0010
0010
0010
0010
0010
0010
0010
0010
0010
0010
0010
0010
0001
,
0001
0000
0000
0001
0000
0000
0001
0000
0000
0001
0000
0000
0001
0000
0000
0001
0000
0000
0001
0000
0000
0001
0000
0000
0001
0000
0000
0001
0000
0000
0100
0000
0010
0000
0001
0000
0010
0000
0100
0000
0010
0000
0001
0000
0010
0000
0100
0000
,
3022
0000
0000
0000
0000
0000
1133
0011
,
0111
0000
1000
0010
1001
0000
1000
0010
1001
0000
1000
0010
1001
0000
0001
0010
,
1001
0000
0001
0010
1001
0000
0001
0010
1001
0000
0010
0100
1010
0000
0010
0100
,
1010
0000
0010
0100
1010
0000
0100
0010
1100
0000
0100
0010
1100
0000
0100
0010
,
1100
0000
0010
0001
1100
0000
0010
0001
1100
0000
0010
0001
1100
0000
0100
1000
,
0011
0000
0100
1000
0011
0000
0100
1000
0011
0000
0100
0001
0110
0000
0100
0001
,
0110
0000
0100
0001
0110
0000
0010
1000
0110
0000
0010
1000
0110
0000
0010
1000
,
0110
0000
1000
0010
0101
0000
1000
0010
0101
0000
1000
0010
0101
0000
0001
0100
,
1010
0000
0001
0100
1010
0000
0001
0100
1010
0000
0100
0000
0001
0000
0100
0010
,
1101
0000
0100
0010
1101
0000
0100
0010
1101
0000
0001
0010
1101
0000
0001
0010
,
1101
0000
0001
0010
1101
0000
1000
0100
1011
0000
1000
0100
1011
0000
0100
0010
,
1101
0000
0100
0010
1101
0000
0100
0010
1101
0000
0001
0100
1011
0000
0001
0100
,
1011
0000
0001
0100
1011
0000
1000
0010
1101
0000
1000
0010
1101
0000
1000
0010
,
1101
0000
0010
0001
1110
0000
0010
0001
1110
0000
0010
0001
1110
0000
0100
1000
,
0111
0000
0100
1000
0111
0000
0100
1000
0111
0000
0100
0001
1110
0000
0100
0001
,
1110
0000
0100
0001
1110
0000
0010
1000
0111
0000
0010
1000
0111
0000
1011
1011
,
1011
1011
1011
1011
1011
1011
1011
1011
1011
1011
1011
1011
1011
1011
1011
1011
,
0100
1000
0100
0010
0001
0010
0100
1000
,
0100
0010
0001
0010
0100
1000
0100
0010
,
0001
0010
0100
1000
0100
0010
0001
0010
,
0100
1000
0100
0010
0001
0010
0100
1000
,
0100
0010
0001
0010
0100
1000
0100
0010
,
0001
0010
0100
1000
0100
0010
0001
0010
,
0100
1000
0100
0010
0001
0010
0100
1000
,
0200
0010
0001
0010
1000
0010
0001
0010
,
1300
0000
0000
0000
;

//---------------dance-single - ----------------
#NOTES:
     dance-single:
     :
     Medium:
     1:
     0.000,0.000,0.000,0.000,0.000,0.000,0.000,0.000,0.000,0.000:
0000
0000
0000
0000
;

//---------------dance-single - ----------------
#NOTES:
     dance-single:
     :
     Easy:
     1:
     0.000,0.000,0.000,0.000,0.000,0.000,0.000,0.000,0.000,0.000:
0000
0000
0000
0000
;
